Download The Secret Life of Pets 2 2019 720p WEB-DL x264 Dual Audio [Hindi - English] ESub [MW] torrent - GloDLS - glotorrents.proxybit.pro
Torrent Details For "The Secret Life of Pets 2 2019 720p WEB-DL x264 Dual Audio [Hindi - English] ESub [MW..."

The Secret Life of Pets 2 2019 720p WEB-DL x264 Dual Audio [Hindi - English] ESub [MW...

To download this torrent, you need a BitTorrent client: Vuze or BTGuard
Download this torrent
Download using Magnet Link

Health:
Seeds: 236
Leechers: 470
Completed: 155 
Last Checked: 14-08-2019 13:41:53

Uploader Reputation points : 6070
External: Torrent






Write a Review for the Uploader:   20   Say Thanks with one good review:
Share on Facebook


Details
Name:The Secret Life of Pets 2 2019 720p WEB-DL x264 Dual Audio [Hindi - English] ESub [MW...
Description:




General
Format                                   : Matroska
Format version                           : Version 4
File size                                : 887 MiB
Duration                                 : 1 h 26 min
Overall bit rate                         : 1 441 kb/s

Video
ID                                       : 1
Format                                   : AVC
Format/Info                              : Advanced Video Codec
Format profile                           : [email protected]
Format settings                          : CABAC / 4 Ref Frames
Format settings, CABAC                   : Yes
Format settings, Reference frames        : 4 frames
Codec ID                                 : V_MPEG4/ISO/AVC
Duration                                 : 1 h 26 min
Bit rate                                 : 1 200 kb/s
Width                                    : 1 280 pixels
Height                                   : 692 pixels
Display aspect ratio                     : 1.85:1
Frame rate mode                          : Constant
Frame rate                               : 23.976 (24000/1001) FPS
Color space                              : YUV
Chroma subsampling                       : 4:2:0
Bit depth                                : 8 bits
Scan type                                : Progressive
Bits/(Pixel*Frame)                       : 0.057
Stream size                              : 727 MiB (82%)
Writing library                          : x264 core 157 r2935 545de2f

Audio #1
ID                                       : 2
Format                                   : AAC LC
Codec ID                                 : A_AAC-2
Duration                                 : 1 h 26 min
Bit rate                                 : 128 kb/s
Channel(s)                               : 2 channels
Channel layout                           : L R
Sampling rate                            : 48.0 kHz
Frame rate                               : 46.875 FPS (1024 SPF)
Compression mode                         : Lossy
Stream size                              : 78.8 MiB (9%)
Language                                 : Hindi
Default                                  : Yes
Forced                                   : No

Audio #2
ID                                       : 3
Format                                   : AAC LC
Codec ID                                 : A_AAC-2
Duration                                 : 1 h 26 min
Bit rate                                 : 128 kb/s
Channel(s)                               : 2 channels
Channel layout                           : L R
Sampling rate                            : 48.0 kHz
Frame rate                               : 46.875 FPS (1024 SPF)
Compression mode                         : Lossy
Stream size                              : 79.1 MiB (9%)
Language                                 : English
Default                                  : No
Forced                                   : No

Text
ID                                       : 4
Format                                   : UTF-8
Codec ID                                 : S_TEXT/UTF8
Codec ID/Info                            : UTF-8 Plain Text
Duration                                 : 1 h 26 min
Bit rate                                 : 77 b/s
Count of elements                        : 1926
Stream size                              : 48.6 KiB (0%)
Language                                 : English
Default                                  : Yes
Forced                                   : No

It's Hindi Cleaned Audio


Click To View Image

https://pichub.site/image/hMrxT
https://pichub.site/image/hM5mZ
https://pichub.site/image/hM2ED
https://pichub.site/image/hMlsg
https://pichub.site/image/hMPaI
https://pichub.site/image/hMXzX

YouTube Video:
Category:Movies
Language:English  English
Total Size:887.10 MB
Info Hash:030203AC103B513F873EF869C7D1DCDBCA436C5F
Added By:MovieFreak Verified UploaderMovie Pirate
Date Added:2019-08-14 18:19:55
Torrent Status:Torrent Verified


Ratings:Not Yet Rated (Log in to rate it)


Tracker:
udp://tracker.openbittorrent.com:80/announce

This Torrent also has backup trackers
URLSeedersLeechersCompleted
udp://tracker.openbittorrent.com:80/announce194410
udp://tracker.opentrackr.org:1337/announce235914
udp://tracker.coppersurfer.tk:6969/announce203419
udp://tracker.leechers-paradise.org:6969/announce294520
udp://tracker.internetwarriors.net:1337/announce18369
udp://tracker.opentrackr.org:1337/announce235914
udp://9.rarbg.to:2750/announce192119
udp://exodus.desync.com:6969/announce184414
udp://tracker1.itzmx.com:8080/announce000
udp://explodie.org:6969/announce202913
http://tracker3.itzmx.com:6961/announce286310
udp://tracker.port443.xyz:6969/announce000
udp://tracker.torrent.eu.org:451/announce193613


File List: 





Comments
No comments still posted