تحميل Species IV The Awakening (2007) 1080p BluRay Dual Audio [Hindi+English]SeedUp torrent - GloDLS - glotorrents.proxybit.pro
سيل من التفاصيل عن "Species IV The Awakening (2007) 1080p BluRay Dual Audio [Hindi+English]SeedUp"

Species IV The Awakening (2007) 1080p BluRay Dual Audio [Hindi+English]SeedUp

To download this torrent, you need a BitTorrent client: Vuze or BTGuard
< حجم الخط = 2pt > تحميل هذا السيل
Download using Magnet Link

الصحة:
بذور: 17
leechers: 495
إكمال:
آخر فحص: 12-09-2019 13:12:34

< لون الخط أبيض = > نقاط سمعة رافع : 34
External: Torrent






Write a Review for the Uploader:   0   Say Thanks with one good review:
Share on Facebook


Details
اسم:Species IV The Awakening (2007) 1080p BluRay Dual Audio [Hindi+English]SeedUp
الوصف:


Complete name                            : Species IV The Awakening (2007) 1080p BluRay Dual Audio [Hindi+English]SeedUp.mkv
Format                                   : Matroska
Format version                           : Version 4
File size                                : 1.52 GiB
Duration                                 : 1 h 37 min
Overall bit rate                         : 2 224 kb/s
Movie name                               : Species IV The Awakening (2007) 1080p BluRay Dual Audio [Hindi+English]SeedUp
Encoded date                             : UTC 2019-09-12 10:07:01

Video
ID                                       : 1
Format                                   : AVC
Format/Info                              : Advanced Video Codec
Duration                                 : 1 h 37 min
Bit rate                                 : 2 050 kb/s
Width                                    : 1 920 pixels
Height                                   : 1 072 pixels
Display aspect ratio                     : 16:9
Frame rate mode                          : Constant
Frame rate                               : 23.976 (24000/1001) FPS
Color space                              : YUV
Chroma subsampling                       : 4:2:0
Bit depth                                : 8 bits
Scan type                                : Progressive
Bits/(Pixel*Frame)                       : 0.042
Stream size                              : 1.40 GiB (92%)
Title                                    : SeedUp

Audio #1
ID                                       : 2
Format                                   : AAC LC
Codec ID                                 : A_AAC-2
Duration                                 : 1 h 37 min
Bit rate                                 : 75.9 kb/s
Channel(s)                               : 2 channels
Channel layout                           : L R
Sampling rate                            : 22.05 kHz
Frame rate                               : 21.533 FPS (1024 SPF)
Compression mode                         : Lossy
Delay relative to video                  : -89 ms
Stream size                              : 53.2 MiB (3%)
Title                                    : SeedUp
Language                                 : English

Audio #2
ID                                       : 3
Format                                   : AAC LC
Codec ID                                 : A_AAC-2
Duration                                 : 1 h 37 min
Bit rate                                 : 96.0 kb/s
Channel(s)                               : 2 channels
Channel layout                           : L R
Sampling rate                            : 48.0 kHz
Frame rate                               : 46.875 FPS (1024 SPF)
Compression mode                         : Lossy
Delay relative to video                  : -89 ms
Stream size                              : 67.4 MiB (4%)
Title                                    : SeedUp
Language                                 : Hindi Source Dr Star





Screenshots










يوتيوب فيديو:
الفئة:Movies
اللغة:Hindi  Hindi
إجمالي حجم:1.52 GB
تجزئة المعلومات:57D8419915ED947A66598F233B98AC9CB116299F
وأضاف بها:SeedUp
تاريخ الإضافة:2019-09-12 20:02:31
سيل مركز:Torrent Verified by Prom3th3uS Super Administrator on 12th September, 2019


تصنيفات:Not Yet Rated (Log in to rate it)


Tracker:
udp://tracker.openbittorrent.com:80/announce

هذا السيل كما قد تتبع النسخ الاحتياطي
URLآلاتleechersإكمال
udp://tracker.openbittorrent.com:80/announce3470
udp://tracker.opentrackr.org:1337/announce2460
udp://zephir.monocul.us:6969/announce1300
udp://tracker.torrent.eu.org:451/announce1400
udp://tracker.ds.is:6969/announce1390
udp://open.demonii.si:1337/announce1370
udp://denis.stalker.upeer.me:6969/announce1380
udp://tracker.iamhansen.xyz:2000/announce1380
udp://tracker.filepit.to:6969/announce1360
udp://tracker.nyaa.uk:6969/announce1350
udp://newtoncity.org:6969/announce1350
https://tracker.vectahosting.eu:2053/announce2380
https://tracker.nanoha.org:443/announce000
udp://retracker.akado-ural.ru:80/announce1360


ملف قائمة: 





Comments
لا توجد تعليقات نشرت ما زال