下载 Species III (2004) 1080p BluRay Dual Audio [Hindi+English]SeedUp torrent - GloDLS - glotorrents.proxybit.pro
洪流细节 "Species III (2004) 1080p BluRay Dual Audio [Hindi+English]SeedUp"

Species III (2004) 1080p BluRay Dual Audio [Hindi+English]SeedUp

To download this torrent, you need a BitTorrent client: Vuze or BTGuard
下载这洪流
Download using Magnet Link

健康:
种子: 1
懒鬼: 30
已完成:
上次检查: 12-09-2019 13:01:39

上传者的声誉点 : 34
External: Torrent






Write a Review for the Uploader:   0   Say Thanks with one good review:
Share on Facebook


Details
name:Species III (2004) 1080p BluRay Dual Audio [Hindi+English]SeedUp
说明:


Complete name                            : Species III (2004) 1080p BluRay Dual Audio [Hindi+English]SeedUp.mkv
Format                                   : Matroska
Format version                           : Version 4
File size                                : 1.68 GiB
Duration                                 : 1 h 51 min
Overall bit rate                         : 2 149 kb/s
Movie name                               : Species III (2004) 1080p BluRay Dual Audio [Hindi+English]SeedUp
Encoded date                             : UTC 2019-09-12 09:50:49

Video
ID                                       : 1
Format                                   : AVC
Format/Info                              : Advanced Video Codec
Duration                                 : 1 h 51 min
Bit rate                                 : 1 850 kb/s
Width                                    : 1 920 pixels
Height                                   : 1 080 pixels
Display aspect ratio                     : 16:9
Frame rate mode                          : Constant
Frame rate                               : 23.976 (24000/1001) FPS
Color space                              : YUV
Chroma subsampling                       : 4:2:0
Bit depth                                : 8 bits
Scan type                                : Progressive
Bits/(Pixel*Frame)                       : 0.037
Stream size                              : 1.4 GiB (82%)
Title                                    : SeedUp

Audio #1
ID                                       : 2
Format                                   : AAC LC
Codec ID                                 : A_AAC-2
Duration                                 : 1 h 51 min
Bit rate                                 : 125 kb/s
Channel(s)                               : 6 channels
Channel layout                           : C L R Ls Rs LFE
Sampling rate                            : 48.0 kHz
Frame rate                               : 46.875 FPS (1024 SPF)
Compression mode                         : Lossy
Delay relative to video                  : -21 ms
Stream size                              : 80 MiB (10%)
Title                                    : SeedUp
Language                                 : English

Audio #2
ID                                       : 3
Format                                   : AAC LC SBR
Commercial name                          : HE-AAC
Format settings                          : Explicit
Codec ID                                 : A_AAC-2
Duration                                 : 1 h 51 min
Bit rate                                 : 74.8 kb/s
Channel(s)                               : 2 channels
Channel layout                           : L R
Sampling rate                            : 44.1 kHz
Frame rate                               : 21.533 FPS (2048 SPF)
Compression mode                         : Lossy
Delay relative to video                  : -21 ms
Stream size                              : 59.8 MiB (3%)
Title                                    : SeedUp
Language                                 : Hindi Source Dr Star




Screenshots










YouTube 视频:
类别:Movies
语言:Hindi  Hindi
总大小:1.68 GB
哈希信息:0F60BC35BAF678343912C0F0A25840AB0B9AB6EB
增加:SeedUp
加入的日期:2019-09-12 20:01:37
洪流地位:Torrent Verified by Prom3th3uS Super Administrator on 12th September, 2019


评级:Not Yet Rated (Log in to rate it)


Tracker:
udp://tracker.openbittorrent.com:80/announce

这个洪流也有备份的纤夫
URL播种机懒鬼已完成
udp://tracker.openbittorrent.com:80/announce000
udp://tracker.opentrackr.org:1337/announce000
udp://zephir.monocul.us:6969/announce000
udp://tracker.torrent.eu.org:451/announce000
udp://tracker.ds.is:6969/announce000
udp://open.demonii.si:1337/announce000
udp://denis.stalker.upeer.me:6969/announce000
udp://tracker.iamhansen.xyz:2000/announce000
udp://tracker.filepit.to:6969/announce000
udp://tracker.nyaa.uk:6969/announce000
udp://newtoncity.org:6969/announce000
https://tracker.vectahosting.eu:2053/announce000
https://tracker.nanoha.org:443/announce000
udp://retracker.akado-ural.ru:80/announce000


文件列表: 





Comments
无可奉告,仍将过帐