Télécharger Species II (1998) 1080p BluRay Dual Audio [Hindi+English]SeedUp torrent - GloDLS - glotorrents.proxybit.pro
Détails du Torrent Pour "Species II (1998) 1080p BluRay Dual Audio [Hindi+English]SeedUp"

Species II (1998) 1080p BluRay Dual Audio [Hindi+English]SeedUp

To download this torrent, you need a BitTorrent client: Vuze or BTGuard
Télécharger ce torrent
Download using Magnet Link

santé:
Seeds: 30
Leechers: 37
Terminé: 10 
Dernière vérification: 12-09-2019 13:00:55

Points de réputation Uploader : 34
External: Torrent






Write a Review for the Uploader:   0   Say Thanks with one good review:
Share on Facebook


Details
_NAME_:Species II (1998) 1080p BluRay Dual Audio [Hindi+English]SeedUp
Description:


Complete name                            : Species II (1998) 1080p BluRay Dual Audio [Hindi+English]SeedUp.mkv
Format                                   : Matroska
Format version                           : Version 4
File size                                : 1.51 GiB
Duration                                 : 1 h 33 min
Overall bit rate                         : 2 324 kb/s
Movie name                               : Species II (1998) 1080p BluRay Dual Audio [Hindi+English]SeedUp
Encoded date                             : UTC 2019-09-11 09:05:52

Video
ID                                       : 1
Format                                   : AVC
Format/Info                              : Advanced Video Codec
Duration                                 : 1 h 33 min
Bit rate                                 : 2 150 kb/s
Width                                    : 1 920 pixels
Height                                   : 1 024 pixels
Display aspect ratio                     : 1.85:1
Frame rate mode                          : Constant
Frame rate                               : 23.976 (24000/1001) FPS
Color space                              : YUV
Chroma subsampling                       : 4:2:0
Bit depth                                : 8 bits
Scan type                                : Progressive
Bits/(Pixel*Frame)                       : 0.046
Stream size                              : 1.40 GiB (92%)
Title                                    : SeedUp

Audio #1
ID                                       : 2
Format                                   : AAC LC
Codec ID                                 : A_AAC-2
Duration                                 : 1 h 33 min
Bit rate                                 : 75.9 kb/s
Channel(s)                               : 2 channels
Channel layout                           : L R
Sampling rate                            : 22.05 kHz
Frame rate                               : 21.533 FPS (1024 SPF)
Compression mode                         : Lossy
Delay relative to video                  : -89 ms
Stream size                              : 50.5 MiB (3%)
Title                                    : SeedUp
Language                                 : English

Audio #2
ID                                       : 3
Format                                   : AAC LC
Codec ID                                 : A_AAC-2
Duration                                 : 1 h 33 min
Bit rate                                 : 96.0 kb/s
Channel(s)                               : 2 channels
Channel layout                           : L R
Sampling rate                            : 48.0 kHz
Frame rate                               : 46.875 FPS (1024 SPF)
Compression mode                         : Lossy
Delay relative to video                  : -89 ms
Stream size                              : 64.0 MiB (4%)
Title                                    : SeedUp
Language                                 : Hindi


Screenshots










YouTube Video:
Catégorie:Movies
Langue :Hindi  Hindi
Taille totale:1.51 GB
Info Hash:2A35D0CAF1193581AF52216F16591E2A978E3BC9
Ajouté par:SeedUp
Date:2019-09-12 20:00:53
Statut Torrent:Torrent Verified by Prom3th3uS Super Administrator on 12th September, 2019


évaluations:Not Yet Rated (Log in to rate it)


Tracker:
udp://tracker.openbittorrent.com:80/announce

Ce Torrent a également trackers de sauvegarde
URLSemoirsLeechersTerminé
udp://tracker.openbittorrent.com:80/announce000
udp://tracker.opentrackr.org:1337/announce000
udp://zephir.monocul.us:6969/announce000
udp://tracker.torrent.eu.org:451/announce000
udp://tracker.ds.is:6969/announce000
udp://open.demonii.si:1337/announce000
udp://denis.stalker.upeer.me:6969/announce000
udp://tracker.iamhansen.xyz:2000/announce000
udp://tracker.filepit.to:6969/announce000
udp://tracker.nyaa.uk:6969/announce000
udp://newtoncity.org:6969/announce000
https://tracker.vectahosting.eu:2053/announce000
https://tracker.nanoha.org:443/announce000
udp://retracker.akado-ural.ru:80/announce000


Liste des fichiers: 





Comments
Aucun commentaire n'a encore publié