Download Species (1995) 720p BluRay Dual Audio [Hindi+English]SeedUp torrent - GloDLS - glotorrents.proxybit.pro
Torrent Details For "Species (1995) 720p BluRay Dual Audio [Hindi+English]SeedUp"

Species (1995) 720p BluRay Dual Audio [Hindi+English]SeedUp

To download this torrent, you need a BitTorrent client: Vuze or BTGuard
Download this torrent
Download using Magnet Link

Health:
Seeds: 27
Leechers: 31
Completed: 10 
Last Checked: 12-09-2019 12:56:47

Uploader Reputation points : 34
External: Torrent






Write a Review for the Uploader:   0   Say Thanks with one good review:
Share on Facebook


Details
Name:Species (1995) 720p BluRay Dual Audio [Hindi+English]SeedUp
Description:


Complete name                            : Species (1995) 720p BluRay Dual Audio [Hindi+English]SeedUp.mkv
Format                                   : Matroska
Format version                           : Version 4
File size                                : 789 MiB
Duration                                 : 1 h 48 min
Overall bit rate                         : 1 017 kb/s
Movie name                               : Species (1995) 720p BluRay Dual Audio [Hindi+English]SeedUp
Encoded date                             : UTC 2019-09-10 18:01:26

Video
ID                                       : 1
Format                                   : AVC
Format/Info                              : Advanced Video Codec
Duration                                 : 1 h 48 min
Bit rate                                 : 699 kb/s
Width                                    : 1 280 pixels
Height                                   : 546 pixels
Display aspect ratio                     : 2.35:1
Frame rate mode                          : Constant
Frame rate                               : 23.976 (24000/1001) FPS
Color space                              : YUV
Chroma subsampling                       : 4:2:0
Bit depth                                : 8 bits
Scan type                                : Progressive
Bits/(Pixel*Frame)                       : 0.042
Stream size                              : 542 MiB (69%)
Title                                    : SeedUp

Audio #1
ID                                       : 2
Format                                   : AAC LC
Codec ID                                 : A_AAC-2
Duration                                 : 1 h 43 min
Bit rate                                 : 96.0 kb/s
Channel(s)                               : 2 channels
Channel layout                           : L R
Sampling rate                            : 48.0 kHz
Frame rate                               : 46.875 FPS (1024 SPF)
Compression mode                         : Lossy
Delay relative to video                  : -104 ms
Stream size                              : 71.2 MiB (9%)
Title                                    : SeedUp
Language                                 : Hindi

Audio #2
ID                                       : 3
Format                                   : AC-3
Codec ID                                 : A_AC3
Duration                                 : 1 h 48 min
Bit rate mode                            : Constant
Bit rate                                 : 224 kb/s
Channel(s)                               : 2 channels
Channel layout                           : L R
Sampling rate                            : 44.1 kHz
Frame rate                               : 28.711 FPS (1536 SPF)
Bit depth                                : 16 bits
Compression mode                         : Lossy
Delay relative to video                  : -104 ms
Stream size                              : 174 MiB (22%)
Title                                    : SeedUp
Language                                 : English





Screenshots










YouTube Video:
Category:Movies
Language:Hindi  Hindi
Total Size:788.92 MB
Info Hash:936C2E358DD01D2AF57F76709C8F1A22F6AFC59A
Added By:SeedUp
Date Added:2019-09-12 19:56:46
Torrent Status:Torrent Verified by Prom3th3uS Super Administrator on 12th September, 2019


IMDB - Species
Link
https://www.imdb.com/title/tt0114508/

Rated


Also Known As
N/A

Released
07 Jul 1995

Year
1995

Runtime
108 min

Genre
Action, Horror, Sci-Fi, Thriller

Director
Roger Donaldson

Writer
Dennis Feldman

Actors
Ben Kingsley, Michael Madsen, Alfred Molina, Forest Whitaker

Plot
A group of scientists try to track down and trap a killer alien seductress before she successfully mates with a human.
5.8

Votes 69,824
Last Updated Tue 17th September 2019 14:21 pm

Ratings:Not Yet Rated (Log in to rate it)


Tracker:
udp://tracker.openbittorrent.com:80/announce

This Torrent also has backup trackers
URLSeedersLeechersCompleted
udp://tracker.openbittorrent.com:80/announce000
udp://tracker.opentrackr.org:1337/announce000
udp://zephir.monocul.us:6969/announce000
udp://tracker.torrent.eu.org:451/announce000
udp://tracker.ds.is:6969/announce000
udp://open.demonii.si:1337/announce000
udp://denis.stalker.upeer.me:6969/announce000
udp://tracker.iamhansen.xyz:2000/announce000
udp://tracker.filepit.to:6969/announce000
udp://tracker.nyaa.uk:6969/announce000
udp://newtoncity.org:6969/announce000
https://tracker.vectahosting.eu:2053/announce000
https://tracker.nanoha.org:443/announce000
udp://retracker.akado-ural.ru:80/announce000


File List: 





Comments
No comments still posted