Download Sacred Games S02 (2019) Hindi 720p HDRip x264 AC3 Dual Audio [Hindi +English] { TaRa } mkv torrent - GloDLS - glotorrents.proxybit.pro
Torrent Details For "Sacred Games S02 (2019) Hindi 720p HDRip x264 AC3 Dual Audio [Hindi +English] { TaRa..."

Sacred Games S02 (2019) Hindi 720p HDRip x264 AC3 Dual Audio [Hindi +English] { TaRa...

To download this torrent, you need a BitTorrent client: Vuze or BTGuard
Download this torrent
Download using Magnet Link

Health:
Seeds: 732
Leechers: 577
Completed: 5,238 
Last Checked: 17-08-2019 03:54:43

Uploader Reputation points : 440
External: Torrent






Write a Review for the Uploader:   0   Say Thanks with one good review:
Share on Facebook


Details
Name:Sacred Games S02 (2019) Hindi 720p HDRip x264 AC3 Dual Audio [Hindi +English] { TaRa...
Description:

Sacred Games S02 E01-08(2019) Hindi 720p HDRip x264 AC3 Dual Audio [Hindi +English] { TaRa }.mkv


===================================================================
General
Complete name               : Sacred Games S02 E01-08(2019) Hindi 720p HDRip x264 AC3 Dual Audio [Hindi +English] { TaRa }.mkv
Format                      : Matroska
Format version              : Version 4
File size                   : 3.85 GB
Duration                    : 56 min 18 s
Overall bit rate            : 1 372 kb/s
===================================================================
Video
ID                          : 1
Format                      : AVC
Format/Info                 : Advanced Video Codec
Format profile              : [email protected]
Format settings             : CABAC / 5 Ref Frames
Format settings, CABAC      : Yes
Format settings, Reference  : 5 frames
Codec ID                    : V_MPEG4/ISO/AVC
Duration                    : 56 min 16 s
Bit rate                    : 1 077 kb/s
Width                       : 1 280 pixels
Height                      : 640 pixels
Display aspect ratio        : 2.000
Frame rate mode             : Constant
Frame rate                  : 25.000 FPS
Color space                 : YUV
Chroma subsampling          : 4:2:0
Bit depth                   : 8 bits
Scan type                   : Progressive
Bits/(Pixel*Frame)          : 0.053
Stream size                 : 432 MiB (78%)
Title                       : .....::::: TaRa :::::.....
Language                    : English
Default                     : Yes
Forced                      : Yes
===================================================================
Audio #1
ID                          : 2
Format                      : AC-3
Format/Info                 : Audio Coding 3
Commercial name             : Dolby Digital
Codec ID                    : A_AC3
Duration                    : 56 min 18 s
Bit rate mode               : Constant
Bit rate                    : 192 kb/s
Channel(s)                  : 6 channels
Channel layout              : L R C LFE Ls Rs
Sampling rate               : 48.0 kHz
Frame rate                  : 31.250 FPS (1536 SPF)
Bit depth                   : 16 bits
Compression mode            : Lossy
Stream size                 : 77.3 MiB (14%)
Title                       : .....::::: TaRa :::::.....
Language                    : Hindi
Service kind                : Complete Main
Default                     : Yes
Forced                      : Yes
===================================================================
Audio #2
ID                          : 3
Format                      : AAC LC
Format/Info                 : Advanced Audio Codec Low Complexity
Codec ID                    : A_AAC-2
Duration                    : 56 min 18 s
Bit rate                    : 104 kb/s
Channel(s)                  : 2 channels
Channel layout              : L R
Sampling rate               : 48.0 kHz
Frame rate                  : 46.875 FPS (1024 SPF)
Compression mode            : Lossy
Stream size                 : 41.9 MiB (8%)
Title                       : .....::::: TaRa :::::.....
Language                    : English
Default                     : No
Forced                      : Yes
===================================================================






























YouTube Video:
Category:Movies
Language:Hindi  Hindi
Total Size:3.86 GB
Info Hash:3352DE956CFC10C77A23DB59CABF76A1F47CBAF3
Added By:SkTaRa Verified UploaderMovie Pirate
Date Added:2019-08-15 10:54:01
Torrent Status:Torrent Verified


Ratings:Not Yet Rated (Log in to rate it)


Tracker:
udp://tracker.coppersurfer.tk:6969/announce

This Torrent also has backup trackers
URLSeedersLeechersCompleted
udp://tracker.coppersurfer.tk:6969/announce10677990
udp://tracker.leechers-paradise.org:6969/announce000
udp://bt.xxx-tracker.com:2710/announce6367400
udp://tracker.internetwarriors.net:1337/announce5651336
udp://tracker.openbittorrent.com:80/announce483510
udp://explodie.org:6969/announce4034297
udp://tracker.opentrackr.org:1337/announce7853612
udp://tracker.tiny-vps.com:6969/announce5646428
udp://open.demonii.si:1337/announce000
udp://tracker.torrent.eu.org:451/announce5736242
udp://tracker.pirateparty.gr:6969/announce10376990
udp://ipv4.tracker.harry.lu:80/announce11100
udp://tracker.cyberia.is:6969/announce4834350
udp://9.rarbg.to:2710/announce3931380
udp://denis.stalker.upeer.me:6969/announce2727203


File List: 





Comments
No comments still posted