GloDLS.to - Download Movies, TV, Games and Other Torrents Free RSS 2.0enGloDLS.to - Download Movies, TV, Games and Other Torrents Free - glotorrents.proxybit.proGloDLS.to - Download Movies, TV, Games and Other Torrents Free RSS Feedhttps://glotorrents.proxybit.proCopyright GloDLS.to - Download Movies, TV, Games and Other Torrents FreeWed, 16 Oct 2019 21:13:00 +0800 fc2-ppv-1176687 big Tits rubbed all healing kitchen, there is an young lady will be the - glotorrents.proxybit.pro https://glotorrents.proxybit.pro/torrent.php?id=10120957 https://glotorrents.proxybit.pro/torrent.php?id=10120957 Wed, 16 Oct 2019 21:12:24 +0800 Adult XXX
[URL=https://imagemuggy.com/img-5da71733a1254.html][IMG]https://imagemuggy.com/upload/small/2019/10/16/5da71733a121d.jpg[/IMG][/URL]

[url=https://imagemuggy.com/img-5da71733d53ac.html]https://imagemuggy.com/img-5da71733d53ac.html[/url]
[url=https://imagemuggy.com/img-5da717342c31a.html]https://imagemuggy.com/img-5da717342c31a.html[/url]
]]>
HD NITR-473 breast milk fuckingthe frustration of the milk tank the wife by the - glotorrents.proxybit.pro https://glotorrents.proxybit.pro/torrent.php?id=10120955 https://glotorrents.proxybit.pro/torrent.php?id=10120955 Wed, 16 Oct 2019 21:10:40 +0800 Adult XXX
[URL=https://imagemuggy.com/img-5da716cc84f4e.html][IMG]https://imagemuggy.com/upload/small/2019/10/16/5da716cc84f17.jpg[/IMG][/URL]

]]>
HD MADM-122 no bra sheer Boobs in the unconscious temptation to the next J-Cup - glotorrents.proxybit.pro https://glotorrents.proxybit.pro/torrent.php?id=10120954 https://glotorrents.proxybit.pro/torrent.php?id=10120954 Wed, 16 Oct 2019 21:10:07 +0800 Adult XXX
[URL=https://imagemuggy.com/img-5da716ab82292.html][IMG]https://imagemuggy.com/upload/small/2019/10/16/5da716ab8225c.jpg[/IMG][/URL]

]]>
Tokyo-Hot jup0072 cosplay ballbusting sex volley Maid, yukata, devil costume - glotorrents.proxybit.pro https://glotorrents.proxybit.pro/torrent.php?id=10120953 https://glotorrents.proxybit.pro/torrent.php?id=10120953 Wed, 16 Oct 2019 21:09:54 +0800 Adult XXX
[URL=https://imagemuggy.com/img-5da7169bdb33c.html][IMG]https://imagemuggy.com/upload/small/2019/10/16/5da7169bdb306.jpg[/IMG][/URL]

[url=https://imagemuggy.com/img-5da7169c624d1.html]https://imagemuggy.com/img-5da7169c624d1.html[/url]
]]>
HD MXGS-1122 love Luna cannot be helped, made of broken metal will Shine Luna - glotorrents.proxybit.pro https://glotorrents.proxybit.pro/torrent.php?id=10120952 https://glotorrents.proxybit.pro/torrent.php?id=10120952 Wed, 16 Oct 2019 21:09:21 +0800 Adult XXX
[URL=https://imagemuggy.com/img-5da7167d88269.html][IMG]https://imagemuggy.com/upload/small/2019/10/16/5da7167d88229.jpg[/IMG][/URL]

]]>
18+ The Wedding Guest 2019 BRRip XviD AC3 LLG - glotorrents.proxybit.pro https://glotorrents.proxybit.pro/torrent.php?id=10120951 https://glotorrents.proxybit.pro/torrent.php?id=10120951 Wed, 16 Oct 2019 21:08:57 +0800 Movies [center]
[b]

******************************Thumbnail:**********************

[url=https://allpagal.info/03/1701.htm][img]https://allpagal.info/03/001701.png[/img][/url]


******************************Screenshots:********************

[url=https://allpagal.info/03/1701.htm]Screenshot 1[/url]

[url=https://allpagal.info/03/1702.htm]Screenshot 2[/url]

[url=https://allpagal.info/03/1703.htm]Screenshot 3[/url]

[url=https://allpagal.info/03/1704.htm]Screenshot 4[/url]

[url=https://allpagal.info/03/1705.htm]Screenshot 5[/url]

[url=https://allpagal.info/03/1706.htm]Screenshot 6[/url]

[url=https://allpagal.info/03/1707.htm]Screenshot 7[/url]

[url=https://allpagal.info/03/1708.htm]Screenshot 8[/url]

[url=https://allpagal.info/03/1709.htm]Screenshot 9[/url]

[url=https://allpagal.info/03/1710.htm]Screenshot 0[/url]

**********************************************************
General
18+.The Wedding Guest.2019.BRRip.XviD.AC3.LLG.mp4
Format : MPEG-4
Format profile : Base Media
Codec ID : isom (isom/iso2/avc1/mp41)
File size : 1.08 GiB
Duration : 1 h 40 min
Overall bit rate mode : Variable
Overall bit rate : 1 548 kb/s

Video
ID : 1
Format : AVC
Format/Info : Advanced Video Codec
Format profile : Main@L3
Format settings : CABAC / 1 Ref Frames
Format settings, CABAC : Yes
Format settings, Reference frames : 1 frame
Codec ID : avc1
Codec ID/Info : Advanced Video Coding
Duration : 1 h 36 min
Bit rate mode : Variable
Bit rate : 1 203 kb/s
Maximum bit rate : 3 600 kb/s
Width : 720 pixels
Height : 302 pixels
Display aspect ratio : 2.40:1
Frame rate mode : Constant
Frame rate : 23.976 (23976/1000) FPS
Color space : YUV
Chroma subsampling : 4:2:0
Bit depth : 8 bits
Scan type : Progressive
Bits/(Pixel*Frame) : 0.231

Audio
ID : 2
Format : AC-3
Format/Info : Audio Coding 3
Commercial name : Dolby Digital
Codec ID : ac-3
Duration : 1 h 40 min
Bit rate mode : Constant
Bit rate : 384 kb/s
Channel(s) : 6 channels
Channel layout : L R C LFE Ls Rs
Sampling rate : 48.0 kHz
Frame rate : 31.250 FPS (1536 SPF)
Bit depth : 16 bits
Compression mode : Lossy
Stream size : 275 MiB (25%)
Title : Surround
Language : English
Service kind : Complete Main
Default : Yes
Alternate group : 1


**********************************************************

[/b]
[/center]
[/quote] ]]>
HD MVG-027 pervert public toilet type body meat urinal woman Mochida - glotorrents.proxybit.pro https://glotorrents.proxybit.pro/torrent.php?id=10120950 https://glotorrents.proxybit.pro/torrent.php?id=10120950 Wed, 16 Oct 2019 21:08:36 +0800 Adult XXX
[URL=https://imagemuggy.com/img-5da71651ceda1.html][IMG]https://imagemuggy.com/upload/small/2019/10/16/5da71651ced6b.jpg[/IMG][/URL]

]]>
Shoplyfter Jenna Foxx mp4 - glotorrents.proxybit.pro https://glotorrents.proxybit.pro/torrent.php?id=10120949 https://glotorrents.proxybit.pro/torrent.php?id=10120949 Wed, 16 Oct 2019 21:08:14 +0800 Adult XXX
Images:

https://www.xximgx.com/img-5da715f94802a.html ]]>
IT-0123, the Idol auditions isnt it-Hoshino Eve - glotorrents.proxybit.pro https://glotorrents.proxybit.pro/torrent.php?id=10120948 https://glotorrents.proxybit.pro/torrent.php?id=10120948 Wed, 16 Oct 2019 21:08:10 +0800 Adult XXX
[URL=https://imagemuggy.com/img-5da716344e240.html][IMG]https://imagemuggy.com/upload/small/2019/10/16/5da716344e205.jpg[/IMG][/URL]

[url=https://imagemuggy.com/img-5da71634a956c.html]https://imagemuggy.com/img-5da71634a956c.html[/url]
]]>
fc2-ppv-722654 individual shooting there is a description of the required S-class beauty the second coming - glotorrents.proxybit.pro https://glotorrents.proxybit.pro/torrent.php?id=10120947 https://glotorrents.proxybit.pro/torrent.php?id=10120947 Wed, 16 Oct 2019 21:08:03 +0800 Adult XXX
[URL=https://imagemuggy.com/img-5da71631c766b.html][IMG]https://imagemuggy.com/upload/small/2019/10/16/5da71631c762c.jpeg[/IMG][/URL]

[url=https://imagemuggy.com/img-5da71632be920.html]https://imagemuggy.com/img-5da71632be920.html[/url]
]]>
HD EKDV-600 slimy lotion swimsuit Nagase, Yui - glotorrents.proxybit.pro https://glotorrents.proxybit.pro/torrent.php?id=10120946 https://glotorrents.proxybit.pro/torrent.php?id=10120946 Wed, 16 Oct 2019 21:07:12 +0800 Adult XXX
[URL=https://imagemuggy.com/img-5da715fd8a7ed.html][IMG]https://imagemuggy.com/upload/small/2019/10/16/5da715fd8a7ad.jpg[/IMG][/URL]

]]>
fc2-ppv-610105 from 19 years oldsimple system Breasts JD22 hours, 44 minutesAmateur gonzopersonal shooting153our Chupa Wang - glotorrents.proxybit.pro https://glotorrents.proxybit.pro/torrent.php?id=10120945 https://glotorrents.proxybit.pro/torrent.php?id=10120945 Wed, 16 Oct 2019 21:07:02 +0800 Adult XXX
[URL=https://imagemuggy.com/img-5da715f194977.html][IMG]https://imagemuggy.com/upload/small/2019/10/16/5da715f194936.jpeg[/IMG][/URL]

]]>
Tokyo-Hot pp0026 gonzo fallen heaven registration No 0026 only the first part - glotorrents.proxybit.pro https://glotorrents.proxybit.pro/torrent.php?id=10120943 https://glotorrents.proxybit.pro/torrent.php?id=10120943 Wed, 16 Oct 2019 21:06:58 +0800 Adult XXX
[URL=https://imagemuggy.com/img-5da715ec850aa.html][IMG]https://imagemuggy.com/upload/small/2019/10/16/5da715ec85074.jpg[/IMG][/URL]

[url=https://imagemuggy.com/img-5da715ece05bb.html]https://imagemuggy.com/img-5da715ece05bb.html[/url]
[url=https://imagemuggy.com/img-5da715ed6cea6.html]https://imagemuggy.com/img-5da715ed6cea6.html[/url]
]]>
[GirlsDoPorn] 20 Years Old - E542 (20 09 2019) rq mp4 - glotorrents.proxybit.pro https://glotorrents.proxybit.pro/torrent.php?id=10120942 https://glotorrents.proxybit.pro/torrent.php?id=10120942 Wed, 16 Oct 2019 21:06:50 +0800 Adult XXX Audio: aac, 44100 Hz, 2 channels, s16, 98 kb/s (und)
Video: h264, yuv420p, 720x404, 2217 kb/s, 30,00 fps(r) (und)

http://imgjazz.com/img-5da715dc1f3ca.html



]]>
Road 102215 183 after school H M-one - glotorrents.proxybit.pro https://glotorrents.proxybit.pro/torrent.php?id=10120941 https://glotorrents.proxybit.pro/torrent.php?id=10120941 Wed, 16 Oct 2019 21:06:42 +0800 Adult XXX
[URL=https://imagemuggy.com/img-5da715dc2266e.html][IMG]https://imagemuggy.com/upload/small/2019/10/16/5da715dc22615.jpg[/IMG][/URL]

[url=https://imagemuggy.com/img-5da715dc6d182.html]https://imagemuggy.com/img-5da715dc6d182.html[/url]
]]>
IT is 2099 Amateur MILF and swallowing all the cum they can get Vol 2 - glotorrents.proxybit.pro https://glotorrents.proxybit.pro/torrent.php?id=10120925 https://glotorrents.proxybit.pro/torrent.php?id=10120925 Wed, 16 Oct 2019 21:05:28 +0800 Adult XXX
[URL=https://imagemuggy.com/img-5da71592207d5.html][IMG]https://imagemuggy.com/upload/small/2019/10/16/5da715922079f.jpg[/IMG][/URL]

[url=https://imagemuggy.com/img-5da7159290644.html]https://imagemuggy.com/img-5da7159290644.html[/url]
]]>
H4610 gol200 naughty 4610 Cape 21-year-old - glotorrents.proxybit.pro https://glotorrents.proxybit.pro/torrent.php?id=10120924 https://glotorrents.proxybit.pro/torrent.php?id=10120924 Wed, 16 Oct 2019 21:05:27 +0800 Adult XXX
[URL=https://imagemuggy.com/img-5da71590b938d.html][IMG]https://imagemuggy.com/upload/small/2019/10/16/5da71590b9355.jpg[/IMG][/URL]

[url=https://imagemuggy.com/img-5da715913705e.html]https://imagemuggy.com/img-5da715913705e.html[/url]
]]>
LAFBD-53 Laforet Girl Vol 53 about slave wife Yui Hatano - glotorrents.proxybit.pro https://glotorrents.proxybit.pro/torrent.php?id=10120914 https://glotorrents.proxybit.pro/torrent.php?id=10120914 Wed, 16 Oct 2019 21:04:54 +0800 Adult XXX
[URL=https://imagemuggy.com/img-5da7156e66f25.html][IMG]https://imagemuggy.com/upload/small/2019/10/16/5da7156e66eed.jpg[/IMG][/URL]

[url=][/url]
[url=https://imagemuggy.com/img-5da7156f70b34.html]https://imagemuggy.com/img-5da7156f70b34.html[/url]
]]>
NaughtyAmerica MyFriendsHotMom Penny Pax mp4 - glotorrents.proxybit.pro https://glotorrents.proxybit.pro/torrent.php?id=10120913 https://glotorrents.proxybit.pro/torrent.php?id=10120913 Wed, 16 Oct 2019 21:04:15 +0800 Adult XXX
Images:

https://www.xximgx.com/img-5da71501b1d60.html ]]>
Jeunes Polonaises Nymphomanes / When French Fuck Young Polish Nymphomaniacs (Kris Bakelit, Jacquie & Michel / Zone sexuelle) (Angel Wicky, Carol Wings,Victoria Daniels, Shanti ) - glotorrents.proxybit.pro https://glotorrents.proxybit.pro/torrent.php?id=10120912 https://glotorrents.proxybit.pro/torrent.php?id=10120912 Wed, 16 Oct 2019 21:04:04 +0800 Adult XXX Date: 2017
Casts: Angel Wicky, Carol Wings,Victoria Daniels, Shanti.
Video: h264, yuv420p, 960x540, 25,00 fps(r) 4 088 Kbps
Audio: ac3, 44100 Hz, stereo

[URL=https://dailyimages.xyz/725n.html][IMG]https://dailyimages.xyz/img/b/e/b/231607p.jpeg[/IMG][/URL] ]]>
[GirlsDoPorn] 19 Years Old - E544 (04 10 2019) rq mp4 - glotorrents.proxybit.pro https://glotorrents.proxybit.pro/torrent.php?id=10120875 https://glotorrents.proxybit.pro/torrent.php?id=10120875 Wed, 16 Oct 2019 21:00:37 +0800 Adult XXX Audio: aac, 24000 Hz, stereo, s16, 77 kb/s (und)
Video: h264, yuv420p, 720x404, 1087 kb/s, 29,97 fps(r) (und)

http://imgfrost.net/umbtekb



]]>
H0930 ki191010 naughty 0930 dry 36 years old - glotorrents.proxybit.pro https://glotorrents.proxybit.pro/torrent.php?id=10120862 https://glotorrents.proxybit.pro/torrent.php?id=10120862 Wed, 16 Oct 2019 20:59:05 +0800 Adult XXX
[URL=https://imagemuggy.com/img-5da7141539eb2.html][IMG]https://imagemuggy.com/upload/small/2019/10/16/5da7141539e7c.jpg[/IMG][/URL]

[url=https://imagemuggy.com/img-5da7141595bf9.html]https://imagemuggy.com/img-5da7141595bf9.html[/url]
]]>
FakeTaxi Luci Reign mp4 - glotorrents.proxybit.pro https://glotorrents.proxybit.pro/torrent.php?id=10120861 https://glotorrents.proxybit.pro/torrent.php?id=10120861 Wed, 16 Oct 2019 20:58:49 +0800 Adult XXX
Images:

https://www.xximgx.com/img-5da713bc92ac9.html ]]>
fc2-ppv-1177446pieces takeprivate with normal love the gameplay in cute POV - glotorrents.proxybit.pro https://glotorrents.proxybit.pro/torrent.php?id=10120860 https://glotorrents.proxybit.pro/torrent.php?id=10120860 Wed, 16 Oct 2019 20:57:48 +0800 Adult XXX
[URL=https://imagemuggy.com/img-5da713c716e00.html][IMG]https://imagemuggy.com/upload/small/2019/10/16/5da713c716dca.jpg[/IMG][/URL]

[url=https://imagemuggy.com/img-5da713c7564ae.html]https://imagemuggy.com/img-5da713c7564ae.html[/url]
]]>
DSAMBD-19 ecstatic unstoppable ask Satomi Suzuki - glotorrents.proxybit.pro https://glotorrents.proxybit.pro/torrent.php?id=10120859 https://glotorrents.proxybit.pro/torrent.php?id=10120859 Wed, 16 Oct 2019 20:57:04 +0800 Adult XXX
[URL=https://imagemuggy.com/img-5da71398f26bd.html][IMG]https://imagemuggy.com/upload/small/2019/10/16/5da71398f267d.jpg[/IMG][/URL]

[url=https://imagemuggy.com/img-5da713997da15.html]https://imagemuggy.com/img-5da713997da15.html[/url]
[url=https://imagemuggy.com/img-5da7139a10d1f.html]https://imagemuggy.com/img-5da7139a10d1f.html[/url]
]]>
fc2-ppv-1177740unexpected vaginal cum shot super-cute rookie CAA-A Servicesecret Actually in shaved pussy in cowgirl and - glotorrents.proxybit.pro https://glotorrents.proxybit.pro/torrent.php?id=10120858 https://glotorrents.proxybit.pro/torrent.php?id=10120858 Wed, 16 Oct 2019 20:56:29 +0800 Adult XXX
[URL=https://imagemuggy.com/img-5da71377c2c1c.html][IMG]https://imagemuggy.com/upload/small/2019/10/16/5da71377c2be4.jpg[/IMG][/URL]

[url=https://imagemuggy.com/img-5da7137831efa.html]https://imagemuggy.com/img-5da7137831efa.html[/url]
[url=https://imagemuggy.com/img-5da713787ae91.html]https://imagemuggy.com/img-5da713787ae91.html[/url]
]]>
Russian teen Anjelika gets fucked in the ass - glotorrents.proxybit.pro https://glotorrents.proxybit.pro/torrent.php?id=10120857 https://glotorrents.proxybit.pro/torrent.php?id=10120857 Wed, 16 Oct 2019 20:56:19 +0800 Adult XXX
[url=https://hebukecob.xyz/image/NP4G][img]https://hebukecob.xyz/images/2019/10/16/Russian-teen-Anjelika-gets-fucked-in-the-ass.mp4_snapshot_19.30_2019.10.16_18.18.40.th.jpg[/img][/url] [url=https://hebukecob.xyz/image/Nxuq][img]https://hebukecob.xyz/images/2019/10/16/Russian-teen-Anjelika-gets-fucked-in-the-ass.mp4_snapshot_29.37_2019.10.16_18.18.47.th.jpg[/img][/url] [url=https://hebukecob.xyz/image/NAKP][img]https://hebukecob.xyz/images/2019/10/16/Russian-teen-Anjelika-gets-fucked-in-the-ass.mp4_thumbs_2019.10.16_18.18.49.th.jpg[/img][/url] ]]>
fc2-ppv-1176717full face outheight 175cm of the Kaoru-Chan his second coming Sensitive content for SP mA - glotorrents.proxybit.pro https://glotorrents.proxybit.pro/torrent.php?id=10120856 https://glotorrents.proxybit.pro/torrent.php?id=10120856 Wed, 16 Oct 2019 20:56:02 +0800 Adult XXX
[URL=https://imagemuggy.com/img-5da7135db15f7.html][IMG]https://imagemuggy.com/upload/small/2019/10/16/5da7135db15b8.jpg[/IMG][/URL]

[url=https://imagemuggy.com/img-5da7135dee9e3.html]https://imagemuggy.com/img-5da7135dee9e3.html[/url]
[url=https://imagemuggy.com/img-5da7135e6aa37.html]https://imagemuggy.com/img-5da7135e6aa37.html[/url]
]]>
Raunchy 18-Years Old Blowing Big Prick And Spunk Mouth - glotorrents.proxybit.pro https://glotorrents.proxybit.pro/torrent.php?id=10120855 https://glotorrents.proxybit.pro/torrent.php?id=10120855 Wed, 16 Oct 2019 20:55:50 +0800 Adult XXX
[url=https://hebukecob.xyz/image/Ns2I][img]https://hebukecob.xyz/images/2019/10/16/Raunchy-18-Years-Old-Blowing-Big-Prick-And-Spunk-Mouth.mp4_snapshot_03.09_2019.10.16_18.18.09.th.jpg[/img][/url] [url=https://hebukecob.xyz/image/NJXO][img]https://hebukecob.xyz/images/2019/10/16/Raunchy-18-Years-Old-Blowing-Big-Prick-And-Spunk-Mouth.mp4_snapshot_06.21_2019.10.16_18.18.15.th.jpg[/img][/url] [url=https://hebukecob.xyz/image/Nu8n][img]https://hebukecob.xyz/images/2019/10/16/Raunchy-18-Years-Old-Blowing-Big-Prick-And-Spunk-Mouth.mp4_thumbs_2019.10.16_18.18.21.th.jpg[/img][/url] ]]>
Provocative Mommy Likes Hard Fuck - glotorrents.proxybit.pro https://glotorrents.proxybit.pro/torrent.php?id=10120854 https://glotorrents.proxybit.pro/torrent.php?id=10120854 Wed, 16 Oct 2019 20:55:02 +0800 Adult XXX
[url=https://hebukecob.xyz/image/NcyT][img]https://hebukecob.xyz/images/2019/10/16/Provocative-Mommy-Likes-Hard-Fuck.mp4_snapshot_08.32_2019.10.16_18.17.41.th.jpg[/img][/url] [url=https://hebukecob.xyz/image/NLLg][img]https://hebukecob.xyz/images/2019/10/16/Provocative-Mommy-Likes-Hard-Fuck.mp4_snapshot_15.57_2019.10.16_18.17.48.th.jpg[/img][/url] [url=https://hebukecob.xyz/image/N6Th][img]https://hebukecob.xyz/images/2019/10/16/Provocative-Mommy-Likes-Hard-Fuck.mp4_thumbs_2019.10.16_18.17.53.th.jpg[/img][/url] ]]>
Private Rebecca Volpetti Eager To Please - glotorrents.proxybit.pro https://glotorrents.proxybit.pro/torrent.php?id=10120853 https://glotorrents.proxybit.pro/torrent.php?id=10120853 Wed, 16 Oct 2019 20:54:34 +0800 Adult XXX [url=https://hebukecob.xyz/image/Neuc][img]https://hebukecob.xyz/images/2019/10/16/Private-Rebecca-Volpetti-Eager-To-Please.mp4_snapshot_10.11_2019.10.16_18.17.13.th.jpg[/img][/url] [url=https://hebukecob.xyz/image/Ngzl][img]https://hebukecob.xyz/images/2019/10/16/Private-Rebecca-Volpetti-Eager-To-Please.mp4_snapshot_19.40_2019.10.16_18.17.21.th.jpg[/img][/url] [url=https://hebukecob.xyz/image/N3SE][img]https://hebukecob.xyz/images/2019/10/16/Private-Rebecca-Volpetti-Eager-To-Please.mp4_thumbs_2019.10.16_18.17.24.th.jpg[/img][/url] ]]> Mando Diao - BANG (2019) Mp3 320kbps GROO - glotorrents.proxybit.pro https://glotorrents.proxybit.pro/torrent.php?id=10120852 https://glotorrents.proxybit.pro/torrent.php?id=10120852 Wed, 16 Oct 2019 20:54:31 +0800 Music [img]http://i.imgur.com/bgYzPTr.jpg[/img]

Mando Diao - BANG (2019) Mp3 320kbps GROO

[img]https://i.imgur.com/ymAYW3j.jpg[/img]

[img]https://i.imgur.com/3udBGtS.jpg[/img]

ARTIST: Mando Diao

ALBUM / TITLE: BANG

RELEASE YEAR / DATE: 2019

STYLE: Indie Rock

DURATION: 00:31:12 / 72 MB

FILE FORMAT: MP3

QUALITY: 320 kbps

[img]https://i.imgur.com/dcAq0ID.jpg[/img]
1. One Last Fire (02:40)
2. He Can't Control You (03:42)
3. Long Long Way (03:15)
4. Don't Tell Me (03:09)
5. I Was Blind (03:15)
6. Bang Your Head (02:22)
7. Get Free (03:33)
8. My Woman (02:42)
9. Scream for You (03:41)
10. Society (02:53)
[/center] ]]>
PixAndVideo Lina Audley Hung Up On You blowing off - glotorrents.proxybit.pro https://glotorrents.proxybit.pro/torrent.php?id=10120851 https://glotorrents.proxybit.pro/torrent.php?id=10120851 Wed, 16 Oct 2019 20:53:39 +0800 Adult XXX
[url=https://hebukecob.xyz/image/NF2s][img]https://hebukecob.xyz/images/2019/10/16/PixAndVideo-Lina-Audley-Hung-Up-On-You-blowing-off.mp4_snapshot_11.58_2019.10.16_18.16.41.th.jpg[/img][/url] [url=https://hebukecob.xyz/image/NOwj][img]https://hebukecob.xyz/images/2019/10/16/PixAndVideo-Lina-Audley-Hung-Up-On-You-blowing-off.mp4_snapshot_18.27_2019.10.16_18.16.46.th.jpg[/img][/url] [url=https://hebukecob.xyz/image/NX4i][img]https://hebukecob.xyz/images/2019/10/16/PixAndVideo-Lina-Audley-Hung-Up-On-You-blowing-off.mp4_thumbs_2019.10.16_18.16.49.th.jpg[/img][/url] ]]>
CWPBD-28 catwalk poison 28 Yayoi Yanagida - glotorrents.proxybit.pro https://glotorrents.proxybit.pro/torrent.php?id=10120850 https://glotorrents.proxybit.pro/torrent.php?id=10120850 Wed, 16 Oct 2019 20:53:27 +0800 Adult XXX
[URL=https://imagemuggy.com/img-5da712c15066e.html][IMG]https://imagemuggy.com/upload/small/2019/10/16/5da712c150638.jpg[/IMG][/URL]

[url=][/url]
[url=https://imagemuggy.com/img-5da712c230c24.html]https://imagemuggy.com/img-5da712c230c24.html[/url]
]]>
Passion high resolution Lia Lor and Dani Jensen - glotorrents.proxybit.pro https://glotorrents.proxybit.pro/torrent.php?id=10120849 https://glotorrents.proxybit.pro/torrent.php?id=10120849 Wed, 16 Oct 2019 20:53:12 +0800 Adult XXX
[url=https://hebukecob.xyz/image/mpS7][img]https://hebukecob.xyz/images/2019/10/16/Passion-high-resolution-Lia-Lor-and-Dani-Jensen.mp4_snapshot_10.01_2019.10.16_18.13.40.th.jpg[/img][/url] [url=https://hebukecob.xyz/image/m4D8][img]https://hebukecob.xyz/images/2019/10/16/Passion-high-resolution-Lia-Lor-and-Dani-Jensen.mp4_snapshot_16.40_2019.10.16_18.13.44.th.jpg[/img][/url] [url=https://hebukecob.xyz/image/m5yx][img]https://hebukecob.xyz/images/2019/10/16/Passion-high-resolution-Lia-Lor-and-Dani-Jensen.mp4_snapshot_20.22_2019.10.16_18.13.47.th.jpg[/img][/url] [url=https://hebukecob.xyz/image/mGC4][img]https://hebukecob.xyz/images/2019/10/16/Passion-high-resolution-Lia-Lor-and-Dani-Jensen.mp4_snapshot_24.35_2019.10.16_18.13.50.th.jpg[/img][/url] [url=https://hebukecob.xyz/image/N7OZ][img]https://hebukecob.xyz/images/2019/10/16/Passion-high-resolution-Lia-Lor-and-Dani-Jensen.mp4_thumbs_2019.10.16_18.13.56.th.jpg[/img][/url] ]]>
Panties down masturbating on a chair - glotorrents.proxybit.pro https://glotorrents.proxybit.pro/torrent.php?id=10120848 https://glotorrents.proxybit.pro/torrent.php?id=10120848 Wed, 16 Oct 2019 20:52:44 +0800 Adult XXX
[url=https://hebukecob.xyz/image/mjsr][img]https://hebukecob.xyz/images/2019/10/16/Panties-down-masturbating-on-a-chair.mp4_snapshot_01.18_2019.10.16_14.25.13.th.jpg[/img][/url] [url=https://hebukecob.xyz/image/mS4a][img]https://hebukecob.xyz/images/2019/10/16/Panties-down-masturbating-on-a-chair.mp4_snapshot_03.09_2019.10.16_14.25.20.th.jpg[/img][/url] [url=https://hebukecob.xyz/image/mozM][img]https://hebukecob.xyz/images/2019/10/16/Panties-down-masturbating-on-a-chair.mp4_thumbs_2019.10.16_14.25.22.th.jpg[/img][/url] ]]>
BrazzersExxtra Karma RX (Ill Fuck Who I Want) mp4 - glotorrents.proxybit.pro https://glotorrents.proxybit.pro/torrent.php?id=10120847 https://glotorrents.proxybit.pro/torrent.php?id=10120847 Wed, 16 Oct 2019 20:52:31 +0800 Adult XXX
Images:

https://www.xximgx.com/img-5da7124bafd4c.html ]]>
Nice Rear Tramp Is Masturbating Gently smateur porn - glotorrents.proxybit.pro https://glotorrents.proxybit.pro/torrent.php?id=10120846 https://glotorrents.proxybit.pro/torrent.php?id=10120846 Wed, 16 Oct 2019 20:52:17 +0800 Adult XXX
[url=https://hebukecob.xyz/image/mbOD][img]https://hebukecob.xyz/images/2019/10/16/Nice-Rear-Tramp-Is-Masturbating-Gently-smateur-porn.mp4_snapshot_00.00_2019.10.16_14.24.43.th.jpg[/img][/url] [url=https://hebukecob.xyz/image/mlnB][img]https://hebukecob.xyz/images/2019/10/16/Nice-Rear-Tramp-Is-Masturbating-Gently-smateur-porn.mp4_snapshot_11.56_2019.10.16_14.24.55.th.jpg[/img][/url] [url=https://hebukecob.xyz/image/m1wt][img]https://hebukecob.xyz/images/2019/10/16/Nice-Rear-Tramp-Is-Masturbating-Gently-smateur-porn.mp4_thumbs_2019.10.16_14.25.01.th.jpg[/img][/url] ]]>
fc2-ppv-1177399time lapse pies words blame, likes to be sultry E Cup Tits of school teacher - glotorrents.proxybit.pro https://glotorrents.proxybit.pro/torrent.php?id=10120844 https://glotorrents.proxybit.pro/torrent.php?id=10120844 Wed, 16 Oct 2019 20:52:03 +0800 Adult XXX
[URL=https://imagemuggy.com/img-5da7126e88f9c.html][IMG]https://imagemuggy.com/upload/small/2019/10/16/5da7126e88f67.jpg[/IMG][/URL]

[url=https://imagemuggy.com/img-5da7126edf41d.html]https://imagemuggy.com/img-5da7126edf41d.html[/url]
]]>
Nice Blond Hair Babe Sucking Male Pole XXX - glotorrents.proxybit.pro https://glotorrents.proxybit.pro/torrent.php?id=10120840 https://glotorrents.proxybit.pro/torrent.php?id=10120840 Wed, 16 Oct 2019 20:51:46 +0800 Adult XXX
[url=https://hebukecob.xyz/image/mCD9][img]https://hebukecob.xyz/images/2019/10/16/Nice-Blond-Hair-Babe-Sucking-Male-Pole-XXX.mp4_snapshot_05.02_2019.10.16_14.24.26.th.jpg[/img][/url] [url=https://hebukecob.xyz/image/mTtS][img]https://hebukecob.xyz/images/2019/10/16/Nice-Blond-Hair-Babe-Sucking-Male-Pole-XXX.mp4_snapshot_10.39_2019.10.16_14.24.32.th.jpg[/img][/url] [url=https://hebukecob.xyz/image/mYCN][img]https://hebukecob.xyz/images/2019/10/16/Nice-Blond-Hair-Babe-Sucking-Male-Pole-XXX.mp4_thumbs_2019.10.16_14.24.34.th.jpg[/img][/url] ]]>
Nasty Babe Knows How To Shake Penis sex XXX - glotorrents.proxybit.pro https://glotorrents.proxybit.pro/torrent.php?id=10120829 https://glotorrents.proxybit.pro/torrent.php?id=10120829 Wed, 16 Oct 2019 20:50:50 +0800 Adult XXX
[url=https://hebukecob.xyz/image/mHsP][img]https://hebukecob.xyz/images/2019/10/16/Nasty-Babe-Knows-How-To-Shake-Penis-sex-XXX.mp4_snapshot_02.26_2019.10.16_14.23.37.th.jpg[/img][/url] [url=https://hebukecob.xyz/image/mw0q][img]https://hebukecob.xyz/images/2019/10/16/Nasty-Babe-Knows-How-To-Shake-Penis-sex-XXX.mp4_snapshot_13.43_2019.10.16_14.23.48.th.jpg[/img][/url] [url=https://hebukecob.xyz/image/mIip][img]https://hebukecob.xyz/images/2019/10/16/Nasty-Babe-Knows-How-To-Shake-Penis-sex-XXX.mp4_snapshot_19.45_2019.10.16_14.23.51.th.jpg[/img][/url] [url=https://hebukecob.xyz/image/mV1K][img]https://hebukecob.xyz/images/2019/10/16/Nasty-Babe-Knows-How-To-Shake-Penis-sex-XXX.mp4_thumbs_2019.10.16_14.23.58.th.jpg[/img][/url] ]]>
My Friend s Hot Mom Reagan Foxx XXX - glotorrents.proxybit.pro https://glotorrents.proxybit.pro/torrent.php?id=10120822 https://glotorrents.proxybit.pro/torrent.php?id=10120822 Wed, 16 Oct 2019 20:50:22 +0800 Adult XXX
[url=https://hebukecob.xyz/image/mZFI][img]https://hebukecob.xyz/images/2019/10/16/My-Friends-Hot-Mom-Reagan-Foxx-XXX.mp4_snapshot_14.30_2019.10.16_14.23.18.th.jpg[/img][/url] [url=https://hebukecob.xyz/image/mdnn][img]https://hebukecob.xyz/images/2019/10/16/My-Friends-Hot-Mom-Reagan-Foxx-XXX.mp4_snapshot_19.15_2019.10.16_14.23.23.th.jpg[/img][/url] [url=https://hebukecob.xyz/image/mqqG][img]https://hebukecob.xyz/images/2019/10/16/My-Friends-Hot-Mom-Reagan-Foxx-XXX.mp4_thumbs_2019.10.16_14.23.26.th.jpg[/img][/url] ]]>
Princess Emmy 2019 HDRip XviD AC3 LLG - glotorrents.proxybit.pro https://glotorrents.proxybit.pro/torrent.php?id=10120815 https://glotorrents.proxybit.pro/torrent.php?id=10120815 Wed, 16 Oct 2019 20:49:54 +0800 Movies [center]
[b]

******************************Thumbnail:**********************

[url=https://allpagal.info/03/1691.htm][img]https://allpagal.info/03/001691.png[/img][/url]


******************************Screenshots:********************

[url=https://allpagal.info/03/1691.htm]Screenshot 1[/url]

[url=https://allpagal.info/03/1692.htm]Screenshot 2[/url]

[url=https://allpagal.info/03/1693.htm]Screenshot 3[/url]

[url=https://allpagal.info/03/1694.htm]Screenshot 4[/url]

[url=https://allpagal.info/03/1695.htm]Screenshot 5[/url]

[url=https://allpagal.info/03/1696.htm]Screenshot 6[/url]

[url=https://allpagal.info/03/1697.htm]Screenshot 7[/url]

[url=https://allpagal.info/03/1698.htm]Screenshot 8[/url]

[url=https://allpagal.info/03/1699.htm]Screenshot 9[/url]

[url=https://allpagal.info/03/1700.htm]Screenshot 0[/url]

**********************************************************
General
Princess.Emmy.2019.HDRip.XviD.AC3.LLG.mp4
Format : MPEG-4
Format profile : Base Media
Codec ID : isom (isom/iso2/avc1/mp41)
File size : 1.02 GiB
Duration : 1 h 17 min
Overall bit rate mode : Variable
Overall bit rate : 1 887 kb/s

Video
ID : 1
Format : AVC
Format/Info : Advanced Video Codec
Format profile : Main@L3
Format settings : CABAC / 1 Ref Frames
Format settings, CABAC : Yes
Format settings, Reference frames : 1 frame
Codec ID : avc1
Codec ID/Info : Advanced Video Coding
Duration : 1 h 17 min
Bit rate mode : Variable
Bit rate : 1 500 kb/s
Maximum bit rate : 4 500 kb/s
Width : 720 pixels
Height : 404 pixels
Display aspect ratio : 16:9
Frame rate mode : Constant
Frame rate : 23.976 (23976/1000) FPS
Color space : YUV
Chroma subsampling : 4:2:0
Bit depth : 8 bits
Scan type : Progressive
Bits/(Pixel*Frame) : 0.215
Stream size : 832 MiB (79%)

Audio
ID : 2
Format : AC-3
Format/Info : Audio Coding 3
Commercial name : Dolby Digital
Codec ID : ac-3
Duration : 1 h 17 min
Bit rate mode : Constant
Bit rate : 384 kb/s
Channel(s) : 6 channels
Channel layout : L R C LFE Ls Rs
Sampling rate : 48.0 kHz
Frame rate : 31.250 FPS (1536 SPF)
Bit depth : 16 bits
Compression mode : Lossy
Stream size : 213 MiB (20%)
Language : English
Service kind : Complete Main
Default : Yes
Alternate group : 1


**********************************************************

[/b]
[/center]
[/quote] ]]>
Mia s Xmas wish is to fuck Scarlett three times - glotorrents.proxybit.pro https://glotorrents.proxybit.pro/torrent.php?id=10120814 https://glotorrents.proxybit.pro/torrent.php?id=10120814 Wed, 16 Oct 2019 20:49:34 +0800 Adult XXX
[url=https://hebukecob.xyz/image/mzth][img]https://hebukecob.xyz/images/2019/10/16/Mias-Xmas-wish-is-to-fuck-Scarlett-three-times.mp4_snapshot_00.26_2019.10.16_14.22.43.th.jpg[/img][/url] [url=https://hebukecob.xyz/image/mi3T][img]https://hebukecob.xyz/images/2019/10/16/Mias-Xmas-wish-is-to-fuck-Scarlett-three-times.mp4_snapshot_07.58_2019.10.16_14.22.54.th.jpg[/img][/url] [url=https://hebukecob.xyz/image/mKCO][img]https://hebukecob.xyz/images/2019/10/16/Mias-Xmas-wish-is-to-fuck-Scarlett-three-times.mp4_thumbs_2019.10.16_14.22.56.th.jpg[/img][/url] ]]>
Taylor V - Intimate Moments 15 10 19 1080p - glotorrents.proxybit.pro https://glotorrents.proxybit.pro/torrent.php?id=10120813 https://glotorrents.proxybit.pro/torrent.php?id=10120813 Wed, 16 Oct 2019 20:49:30 +0800 Adult XXX Casts: Taylor V
Video: MPEG4 Video (H264) 1920x1080 50fps 9997kbps
Audio: AAC 48000Hz mono 157kbps

[URL=https://dailyimages.xyz/7251.html][IMG]https://dailyimages.xyz/img/3/8/9/231585p.jpeg[/IMG][/URL] ]]>
Male Stick In Juicy Slit anna bell peaks - glotorrents.proxybit.pro https://glotorrents.proxybit.pro/torrent.php?id=10120812 https://glotorrents.proxybit.pro/torrent.php?id=10120812 Wed, 16 Oct 2019 20:49:06 +0800 Adult XXX
[url=https://hebukecob.xyz/image/mmiE][img]https://hebukecob.xyz/images/2019/10/16/Male-Stick-In-Juicy-Slit-anna-bell-peaks.mp4_snapshot_09.35_2019.10.16_14.22.26.th.jpg[/img][/url] [url=https://hebukecob.xyz/image/mEJl][img]https://hebukecob.xyz/images/2019/10/16/Male-Stick-In-Juicy-Slit-anna-bell-peaks.mp4_snapshot_21.31_2019.10.16_14.22.32.th.jpg[/img][/url] [url=https://hebukecob.xyz/image/mN1g][img]https://hebukecob.xyz/images/2019/10/16/Male-Stick-In-Juicy-Slit-anna-bell-peaks.mp4_thumbs_2019.10.16_14.22.35.th.jpg[/img][/url] ]]>
CWPBD-27 catwalk poison 27 blue sky Konatsu - glotorrents.proxybit.pro https://glotorrents.proxybit.pro/torrent.php?id=10120811 https://glotorrents.proxybit.pro/torrent.php?id=10120811 Wed, 16 Oct 2019 20:48:51 +0800 Adult XXX
[URL=https://imagemuggy.com/img-5da711a449b60.html][IMG]https://imagemuggy.com/upload/small/2019/10/16/5da711a449b2b.jpg[/IMG][/URL]

[url=][/url]
[url=https://imagemuggy.com/img-5da711a52f6c3.html]https://imagemuggy.com/img-5da711a52f6c3.html[/url]
]]>
Making Love the volleyball player Valentina Nappi - glotorrents.proxybit.pro https://glotorrents.proxybit.pro/torrent.php?id=10120810 https://glotorrents.proxybit.pro/torrent.php?id=10120810 Wed, 16 Oct 2019 20:48:39 +0800 Adult XXX
[url=https://hebukecob.xyz/image/mkqi][img]https://hebukecob.xyz/images/2019/10/16/Making-Love-the-volleyball-player-Valentina-Nappi.mp4_snapshot_03.16_2019.10.16_14.22.00.th.jpg[/img][/url] [url=https://hebukecob.xyz/image/mhAj][img]https://hebukecob.xyz/images/2019/10/16/Making-Love-the-volleyball-player-Valentina-Nappi.mp4_snapshot_12.34_2019.10.16_14.22.07.th.jpg[/img][/url] [url=https://hebukecob.xyz/image/mt0c][img]https://hebukecob.xyz/images/2019/10/16/Making-Love-the-volleyball-player-Valentina-Nappi.mp4_thumbs_2019.10.16_14.22.10.th.jpg[/img][/url] ]]>
Ciara D - Nude Girls Dildo Insertion 14 10 19 1080p - glotorrents.proxybit.pro https://glotorrents.proxybit.pro/torrent.php?id=10120809 https://glotorrents.proxybit.pro/torrent.php?id=10120809 Wed, 16 Oct 2019 20:48:21 +0800 Adult XXX Casts: Ciara D
Video: MPEG4 Video (H264) 1920x1080 50fps 9996kbps
Audio: AAC 48000Hz mono 157kbps

[URL=https://dailyimages.xyz/7254.html][IMG]https://dailyimages.xyz/img/8/6/3/231588p.jpeg[/IMG][/URL] ]]>
Madison Fox fuking XXX - glotorrents.proxybit.pro https://glotorrents.proxybit.pro/torrent.php?id=10120807 https://glotorrents.proxybit.pro/torrent.php?id=10120807 Wed, 16 Oct 2019 20:48:09 +0800 Adult XXX
[url=https://hebukecob.xyz/image/m2rZ][img]https://hebukecob.xyz/images/2019/10/16/Madison-Fox-fuking-XXX-.mp4_snapshot_05.23_2019.10.16_14.21.47.th.jpg[/img][/url] [url=https://hebukecob.xyz/image/mnk4][img]https://hebukecob.xyz/images/2019/10/16/Madison-Fox-fuking-XXX-.mp4_snapshot_10.54_2019.10.16_14.21.50.th.jpg[/img][/url] [url=https://hebukecob.xyz/image/mRFs][img]https://hebukecob.xyz/images/2019/10/16/Madison-Fox-fuking-XXX-.mp4_thumbs_2019.10.16_14.21.52.th.jpg[/img][/url] ]]>