Download Godzilla King of the Monsters 2019 720p WEB-DL x264 Dual Audio [Hindi - English] ESub [MW] torrent - GloDLS - glotorrents.proxybit.pro
Torrent Details For "Godzilla King of the Monsters 2019 720p WEB-DL x264 Dual Audio [Hindi - English] ESub..."

Godzilla King of the Monsters 2019 720p WEB-DL x264 Dual Audio [Hindi - English] ESub...

To download this torrent, you need a BitTorrent client: Vuze or BTGuard
Download this torrent
Download using Magnet Link

Health:
Seeds: 286
Leechers: 676
Completed: 153 
Last Checked: 14-08-2019 13:42:12

Uploader Reputation points : 6108
External: Torrent






Write a Review for the Uploader:   20   Say Thanks with one good review:
Share on Facebook


Details
Name:Godzilla King of the Monsters 2019 720p WEB-DL x264 Dual Audio [Hindi - English] ESub...
Description:




General
Format                                   : Matroska
Format version                           : Version 4
File size                                : 1.33 GiB
Duration                                 : 2 h 11 min
Overall bit rate                         : 1 445 kb/s

Video
ID                                       : 1
Format                                   : AVC
Format/Info                              : Advanced Video Codec
Format profile                           : [email protected]
Format settings                          : CABAC / 4 Ref Frames
Format settings, CABAC                   : Yes
Format settings, Reference frames        : 4 frames
Codec ID                                 : V_MPEG4/ISO/AVC
Duration                                 : 2 h 11 min
Bit rate                                 : 1 200 kb/s
Width                                    : 1 280 pixels
Height                                   : 532 pixels
Display aspect ratio                     : 2.40:1
Frame rate mode                          : Constant
Frame rate                               : 23.976 (24000/1001) FPS
Color space                              : YUV
Chroma subsampling                       : 4:2:0
Bit depth                                : 8 bits
Scan type                                : Progressive
Bits/(Pixel*Frame)                       : 0.073
Stream size                              : 1.09 GiB (82%)
Writing library                          : x264 core 157 r2935 545de2f

Audio #1
ID                                       : 2
Format                                   : AAC LC
Codec ID                                 : A_AAC-2
Duration                                 : 2 h 11 min
Bit rate                                 : 128 kb/s
Channel(s)                               : 2 channels
Channel layout                           : L R
Sampling rate                            : 48.0 kHz
Frame rate                               : 46.875 FPS (1024 SPF)
Compression mode                         : Lossy
Stream size                              : 121 MiB (9%)
Language                                 : Hindi
Default                                  : Yes
Forced                                   : No

Audio #2
ID                                       : 3
Format                                   : AAC LC
Codec ID                                 : A_AAC-2
Duration                                 : 2 h 11 min
Bit rate                                 : 128 kb/s
Channel(s)                               : 2 channels
Channel layout                           : L R
Sampling rate                            : 48.0 kHz
Frame rate                               : 46.875 FPS (1024 SPF)
Compression mode                         : Lossy
Stream size                              : 121 MiB (9%)
Language                                 : English
Default                                  : No
Forced                                   : No

Text
ID                                       : 4
Format                                   : UTF-8
Codec ID                                 : S_TEXT/UTF8
Codec ID/Info                            : UTF-8 Plain Text
Duration                                 : 2 h 11 min
Bit rate                                 : 53 b/s
Count of elements                        : 1857
Stream size                              : 51.7 KiB (0%)
Language                                 : English
Default                                  : Yes
Forced                                   : No

It's Hindi Cleaned Audio


Click To View Image

https://pichub.site/image/hMsqJ
https://pichub.site/image/hMn58
https://pichub.site/image/hMZw5
https://pichub.site/image/hM10h
https://pichub.site/image/hM9Tj
https://pichub.site/image/hMFuk

YouTube Video:
Category:Movies
Language:English  English
Total Size:1.33 GB
Info Hash:0101729D46B81F63B97381F71ACDF4784AA12143
Added By:MovieFreak Verified UploaderMovie Pirate
Date Added:2019-08-14 18:20:10
Torrent Status:Torrent Verified


Ratings:Not Yet Rated (Log in to rate it)


Tracker:
udp://tracker.openbittorrent.com:80/announce

This Torrent also has backup trackers
URLSeedersLeechersCompleted
udp://tracker.openbittorrent.com:80/announce276710
udp://tracker.opentrackr.org:1337/announce369024
udp://tracker.coppersurfer.tk:6969/announce155814
udp://tracker.leechers-paradise.org:6969/announce257313
udp://tracker.internetwarriors.net:1337/announce22477
udp://tracker.opentrackr.org:1337/announce369024
udp://9.rarbg.to:2750/announce16409
udp://exodus.desync.com:6969/announce285112
udp://tracker1.itzmx.com:8080/announce000
udp://explodie.org:6969/announce254214
http://tracker3.itzmx.com:6961/announce296810
udp://tracker.port443.xyz:6969/announce000
udp://tracker.torrent.eu.org:451/announce275016


File List: 





Comments
No comments still posted